Shattered.2022.초고화질.WEBRip.DD5.1.x264-NO > 영화
웹하드 가입에서 다운로드까지 어렵지 않아요~
웹하드 가입에서 다운로드까지 어렵지 않아요~
 [구글검색] 구글에서 바다보아 검색 - 구글에서 토렌트를 검색하실 때에 검색어 뒤에 바다보아를 꼭 붙여서 검색하세요.     사용자님의 다운로드가 완료될 때까지 저희가 함께하겠습니다. 편안하고 즐거운 시간 되십시오.

시작페이지

파일썬


[초고화질] Shattered.2022.초고화질.WEBRip.DD5.1.x264-NOGRP Torrent
  • 줄거리:    Screens... (click to enlarge): Infolink -> https://www.imdb.com/title/tt14923008/MediainfoQuote:VideoID : 1Format : AVCFormat/Info : Advanced Video CodecFormat profile : [email protected]Format settings : CABAC / 5 Ref FramesFormat settings, CABAC : YesFormat settings, Reference frames : 5 framesCodec ID : V_MPEG4/ISO/AVCDuration : 1 h 31 minBit rate : 6 718 kb/sWidth : 1 912 pixelsHeight : 792 pixelsDisplay aspect ratio : 2.40:1Frame rate mode : ConstantFrame rate : 23.976 (24000/1001) FPSColor space : YUVChroma subsampling : 4:2:0Bit depth : 8 bitsScan type : ProgressiveBits/(Pixel*Frame) : 0.185Stream size : 4.31 GiB (95%)Default : YesForced : NoColor range : LimitedColor primaries : BT.709Transfer characteristics : BT.709Matrix coefficients : BT.709AudioID : 2Format : AC-3Format/Info : Audio Coding 3Commercial name : Dolby DigitalCodec ID : A_AC3Duration : 1 h 31 minBit rate mode : ConstantBit rate : 384 kb/sChannel(s) : 6 channelsChannel layout : L R C LFE Ls RsSampling rate : 48.0 kHzFrame rate : 31.250 FPS (1536 SPF)Compression mode : LossyStream size : 252 MiB (5%)Language : EnglishService kind : Complete MainDefault : YesForced : NoText #1ID : 3Format : UTF-8Codec ID : S_TEXT/UTF8Codec ID/Info : UTF-8 Plain TextDuration : 1 h 25 minBit rate : 43 b/sCount of elements : 881Stream size : 27.2 KiB (0%)Language : EnglishDefault : YesForced : NoText #2ID : 4Format : UTF-8Codec ID : S_TEXT/UTF8Codec ID/Info : UTF-8 Plain TextDuration : 1 h 18 minBit rate : 0 b/sCount of elements : 14Stream size : 238 Bytes (0%)Title : ForcedLanguage : FrenchDefault : NoForced : Yes Shattered.2022.초고화질.WEBRip.DD5.1.x264-NOGRP…
  • 인기 연관 검색어 구글 검색:    
  • 관련 자료(가나다순):    Shattered 2022 WEBRip x264-ION10    섀터드 Shattered 2017 고화질 초고화질 AMZN WEBRip DDP5 1 x264 NTG 무자막 - 바…
  • 관련 자료(시간순):    가면의 정사 Shattered 1991 고화질 WEB x264 FaiLED - 바다보아    Shattered 2022 WEBRip x264-ION10
  • 같은 시각 자료:    [PACK] Walt Disney Animation 4K UHD Collection (2160p HDR BDRip x...    Hotel.Transylvania.Transformania.2022.2160p.HDR10Plus.WEBRip.6CH....

  직접 다운로드      무료 다운로드

Shattered.2022.초고화질.WEBRip.DD5.1.x264-NOGRP > 영화

[초고화질] Shattered.2022.초고화질.WEBRip.DD5.1.x264-NOGRP
  • Shattered.2022.초고화질.WEBRip.DD5.1.x264-NOGRP  로고   토렌트 링크 제공 서치엔진
  • Shattered.2022.초고화질.WEBRip.DD5.1.x264-NOGRP 로고   초고속 다운로드
  • Shattered.2022.초고화질.WEBRip.DD5.1.x264-NOGRP 로고   대량 업데이트 토렌트다이아
  • Shattered.2022.초고화질.WEBRip.DD5.1.x264-NOGRP 로고   토렌트의 최강자 토렌트씨
  • Shattered.2022.초고화질.WEBRip.DD5.1.x264-NOGRP 로고   무제한 다운로드
  • Shattered.2022.초고화질.WEBRip.DD5.1.x264-NOGRP 로고   인기 콘텐츠 공유 토렌트모바일
  • Shattered.2022.초고화질.WEBRip.DD5.1.x264-NOGRP 로고   토렌트 마법사 토렌트위즈
  • Screens... (click to enlarge): Infolink -> https://www.imdb.com/title/tt14923008/MediainfoQuote:VideoID : 1Format : AVCFormat/Info : Advanced Video CodecFormat profile : [email protected]Format settings : CABAC / 5 Ref FramesFormat settings, CABAC : YesFormat settings, Reference frames : 5 framesCodec ID : V_MPEG4/ISO/AVCDuration : 1 h 31 minBit rate : 6 718 kb/sWidth : 1 912 pixelsHeight : 792 pixelsDisplay aspect ratio : 2.40:1Frame rate mode : ConstantFrame rate : 23.976 (24000/1001) FPSColor space : YUVChroma subsampling : 4:2:0Bit depth : 8 bitsScan type : ProgressiveBits/(Pixel*Frame) : 0.185Stream size : 4.31 GiB (95%)Default : YesForced : NoColor range : LimitedColor primaries : BT.709Transfer characteristics : BT.709Matrix coefficients : BT.709AudioID : 2Format : AC-3Format/Info : Audio Coding 3Commercial name : Dolby DigitalCodec ID : A_AC3Duration : 1 h 31 minBit rate mode : ConstantBit rate : 384 kb/sChannel(s) : 6 channelsChannel layout : L R C LFE Ls RsSampling rate : 48.0 kHzFrame rate : 31.250 FPS (1536 SPF)Compression mode : LossyStream size : 252 MiB (5%)Language : EnglishService kind : Complete MainDefault : YesForced : NoText #1ID : 3Format : UTF-8Codec ID : S_TEXT/UTF8Codec ID/Info : UTF-8 Plain TextDuration : 1 h 25 minBit rate : 43 b/sCount of elements : 881Stream size : 27.2 KiB (0%)Language : EnglishDefault : YesForced : NoText #2ID : 4Format : UTF-8Codec ID : S_TEXT/UTF8Codec ID/Info : UTF-8 Plain TextDuration : 1 h 18 minBit rate : 0 b/sCount of elements : 14Stream size : 238 Bytes (0%)Title : ForcedLanguage : FrenchDefault : NoForced : Yes Shattered.2022.초고화질.WEBRip.DD5.1.x264-NOGRP…



Screens... (click to enlarge):








Infolink -> https://www.imdb.com/title/tt14923008/

Mediainfo

Quote:

Video
ID : 1
Format : AVC
Format/Info : Advanced Video Codec
Format profile : [email protected]
Format settings : CABAC / 5 Ref Frames
Format settings, CABAC : Yes
Format settings, Reference frames : 5 frames
Codec ID : V_MPEG4/ISO/AVC
Duration : 1 h 31 min
Bit rate : 6 718 kb/s
Width : 1 912 pixels
Height : 792 pixels
Display aspect ratio : 2.40:1
Frame rate mode : Constant
Frame rate : 23.976 (24000/1001) FPS
Color space : YUV
Chroma subsampling : 4:2:0
Bit depth : 8 bits
Scan type : Progressive
Bits/(Pixel*Frame) : 0.185
Stream size : 4.31 GiB (95%)
Default : Yes
Forced : No
Color range : Limited
Color primaries : BT.709
Transfer characteristics : BT.709
Matrix coefficients : BT.709

Audio
ID : 2
Format : AC-3
Format/Info : Audio Coding 3
Commercial name : Dolby Digital
Codec ID : A_AC3
Duration : 1 h 31 min
Bit rate mode : Constant
Bit rate : 384 kb/s
Channel(s) : 6 channels
Channel layout : L R C LFE Ls Rs
Sampling rate : 48.0 kHz
Frame rate : 31.250 FPS (1536 SPF)
Compression mode : Lossy
Stream size : 252 MiB (5%)
Language : English
Service kind : Complete Main
Default : Yes
Forced : No

Text #1
ID : 3
Format : UTF-8
Codec ID : S_TEXT/UTF8
Codec ID/Info : UTF-8 Plain Text
Duration : 1 h 25 min
Bit rate : 43 b/s
Count of elements : 881
Stream size : 27.2 KiB (0%)
Language : English
Default : Yes
Forced : No

Text #2
ID : 4
Format : UTF-8
Codec ID : S_TEXT/UTF8
Codec ID/Info : UTF-8 Plain Text
Duration : 1 h 18 min
Bit rate : 0 b/s
Count of elements : 14
Stream size : 238 Bytes (0%)
Title : Forced
Language : French
Default : No
Forced : Yes

Shattered.2022.초고화질.WEBRip.DD5.1.x264-NOGRP


▣ 아이비코리아 채널을 구독해주세요!
◆ 페이스북 : https://www.facebook.com/IBE.KR
◆ 인스타그램 : https://www.instagram.com/ibe.kr/
◆ 트위터 : https://twitter.com/ibekr_ts


이 게시판에서 관련된 자료 목록
웹하드 가입에서 다운로드까지 어렵지 않아요~

시작페이지

파일비트


웹하드 가입에서 다운로드까지 어렵지 않아요~

IMFORMATION STORE
상단으로 가운데로 하단으로